Home » Files » MOVIES TORRENTS » Horror

1920 London
[ Download from this server (33.7Kb) · Screenshot ] 2016-12-24, 1:44 AM

6.51 GB

Shivangi (Meera Chopra) lives in London with her husband Veer Singh (Vishal Karwal). One day, he receives a gift from Rajasthan. From then, strange things happen with Veer and his condition deteriorates. Shivangi, thinking that this is because of black magic, goes to Rajasthan and finds Jai (Sharman Joshi), an exorcist and begs for help. Jai help Shivangi and her possessed husband from the evil spirit forms the crux of the story.

Language: Hindi

Video
Format : AVC
Format/Info : Advanced Video Codec
Format profile : High@L4.1
Format settings, CABAC : Yes
Format settings, ReFrames : 5 frames
Codec ID : V_MPEG4/ISO/AVC
Duration : 1 h 53 min
Bit rate : 8 000 kb/s
Width : 1 920 pixels
Height : 816 pixels
Display aspect ratio : 2.35:1
Frame rate mode : Constant
Frame rate : 24.000 FPS
Color space : YUV
Chroma subsampling : 4:2:0
Bit depth : 8 bits
Scan type : Progressive
Bits/(Pixel*Frame) : 0.213
Stream size : 6.33 GiB (98%)
Default : Yes
Forced : No
Color range : Limited
Color primaries : BT.709
Transfer characteristics : BT.709
Matrix coefficients : BT.709

Audio #1
Format : AAC
Format/Info : Advanced Audio Codec
Format profile : LC
Codec ID : A_AAC
Duration : 1 h 53 min
Bit rate : 160 kb/s
Channel(s) : 2 channels
Channel positions : Front: L R
Sampling rate : 48.0 kHz
Frame rate : 46.875 FPS (1024 spf)
Compression mode : Lossy
Delay relative to video : 9 ms
Stream size : 130 MiB (2%)
Language : Hindi
Default : Yes
Forced : No

46f48f3c4346c828fe488ba690bc7638.png 30c98c26b85c39354103cfa3ad3cef4e.png 3af3832b033593a24eb2374527847113.png a7cebb4b24d34e38d82ba79c483f1879.png

Shivangi Vir and live in London. They are well arrange their life together, and seems to have forgotten about all the difficulties they had to overcome in India. Once Viru comes a strange parcel from Rajasthan, and this gift completely changes the life of a young couple. With the main characters of the film begin to happen strange things that can never be explained. Shivangi, believing that there is involved black magic, decides to refer to the well-known healer Jaya. Witch sheds light on the circumstances of strange misadventures Vir and Shivangi. whether young people will be able to overcome all the trials that fate prepared for him?

The game's story is sweet and friendly couple who many years ago moved to London - and it transfers it pleased so far. Living in London has developed just fine. Lovely house, favorite work, family home - what else is needed for happiness? The main characters were really happy and big plans for the future. Once the move to this beautiful city frightened couple, but now they are sure not to make a mistake when they decided to move here.

The husband did his job, his wife found time to do things like chores and for certain activities. However, family life begins to fall apart just because of one letter came. It sounds incredibly stupid this version - so even thought themselves protagonists, until the incident has not started to happen one after the other. Naturally, the couple could not think that because the letters in their lives begin to happen strange things.

The message was odd, but it the main characters, even no attention not paid. After all, maybe just someone the wrong address - there are lots of reasons due to which a letter might be in the wrong hands. In the end a man's life is in grave danger. The wife does not know how to help a loved one. And this ignorance arises from the lack of any coherent reasons for everything that happens. In the end, the main characters decide to ask for help from an exorcist. Earlier in something supernatural lovers did not believe.

But now they have no other options - if Exorcist can not help, you have to put up with all the horror occurring in their lives. Perhaps this person will be able to give an exact answer about how you can rid yourself of the curse. The hope of a quiet life dying every day. Himself the protagonist does not believe that things can get better. Fear enveloped the life of the spouses when they were not expecting it at all.

Category: Horror | Added by: mikail
Views: 162 | Downloads: 33 | Rating: 5.0/1
Total comments: 0
avatar