Home » Files » MOVIES TORRENTS » Drama

Silence (2016)
[ Download from this server (179.0Kb) · Screenshot ] Yesterday, 0:40 AM

2.22 GB

The story of two Catholic missionaries (Andrew Garfield and Adam Driver) who face the ultimate test of faith when they travel to Japan in search of their missing mentor (Liam Neeson) - at a time when Catholicism was outlawed and their presence forbidden.

Video
ID : 0
Format : MPEG-4 Visual
Format profile : Advanced Simple@L5
Format settings, BVOP : 2
Format settings, QPel : Yes
Format settings, GMC : No warppoints
Format settings, Matrix : Default (H.263)
Muxing mode : Packed bitstream
Codec ID : XVID
Codec ID/Hint : XviD
Duration : 2h 41mn
Bit rate : 1 704 Kbps
Width : 720 pixels
Height : 304 pixels
Display aspect ratio : 2.35:1
Frame rate : 29.970 fps
Color space : YUV
Chroma subsampling : 4:2:0
Bit depth : 8 bits
Scan type : Progressive
Compression mode : Lossy
Bits/(Pixel*Frame) : 0.260
Stream size : 1.92 GiB (87%)
Writing library : XviD 1.2.1 (UTC 2008-12-04)

Audio
ID : 1
Format : AC-3
Format/Info : Audio Coding 3
Mode extension : CM (complete main)
Format settings, Endianness : Big
Codec ID : 2000
Duration : 2h 41mn
Bit rate mode : Constant
Bit rate : 256 Kbps
Channel(s) : 2 channels
Channel positions : Front: L R
Sampling rate : 48.0 KHz
Bit depth : 16 bits
Compression mode : Lossy
Stream size : 295 MiB (13%)
Alignment : Aligned on interleaves
Interleave, duration : 64 ms (1.92 video frames)
Interleave, preload duration : 192 ms

The historical drama, which will not leave you indifferent. The 17th century was a turning point in history. Two Jesuit priests persecuted in Japan. They do not know who to ask for help, there are too many enemies. Silence (2016) Torrent In this country they visited to find a mentor. The main characters tend to talk about Christianity to all the people around. Silence (2016) Torrent Download.

00c13fdfe8255e2cda02cdebc564836f.pngc45ace2ab1b8b06b6691de44829b33e2.png

They talk about the Lord, but not everyone is willing to listen and to hear about what to believe. People hate those who impose their ideas, and even more, if at stake is faith and religion. Key characters are not ready to just pick up and leave everything half way through, they resolutely go to the goal. Silence (2016) Torrent Mission Possible, if the win the support of people. They still have to go the way of hardship, anguish and temptations, which will need to engage in a desperate struggle. How about willpower? Silence (2016) Torrent HD.

In front of a big change, you just need to collect the willpower in a fist. Jesuit priest and could not imagine that it is actually much more complicated than it might seem at first glance. Silence (2016) Torrent You can now go on a journey through the pages of history to find out what will happen next with the key characters in the film. Lovers of dramatic adaptations will surely enjoy this picture of dignity. Silence (2016) Torrent HD Download For Free.

Category: Drama | Added by: mikail
Views: 173 | Downloads: 65 | Rating: 5.0/1
Total comments: 0
avatar