Home » Files » MOVIES TORRENTS » Comedy

Befikre
[ Download from this server (41.1Kb) · Screenshot ] 2016-12-23, 7:39 PM

513.83 MB

Befikre is a story that celebrates being carefree in love. A quintessential Delhi boy Dharam (Ranveer Singh) comes to Paris for work in search of an adventure. Just when he was about to embark on this journey of his life he bumps into a wild, free spirited, French born Indian girl Shyra (Vaani Kapoor). A feisty romance ensues between the two in which both of their personalities- one being an equal match for the other are tested to the limit. Battling their ups and downs, both realize that love is a leap of faith that can only be taken by those who dare to love.

Language: Hindi

General
Format : Matroska
Format version : Version 4 / Version 2
File size : 513 MiB
Duration : 2 h 09 min
Overall bit rate : 553 kb/s
Writing application : mkvmerge v9.6.0 ('Quiet Fire') 64bit
Writing library : libebml v1.3.4 + libmatroska v1.4.5

Video
Format/Info : High Efficiency Video Coding
Format profile : Main 10@L3.1@Main
Codec ID : V_MPEGH/ISO/HEVC
Duration : 2 h 09 min
Bit rate : 455 kb/s
Width : 720 pixels
Height : 304 pixels
Display aspect ratio : 2.35:1
Frame rate mode : Constant
Frame rate : 29.970 FPS
Color space : YUV
Chroma subsampling : 4:2:0
Bit depth : 10 bits
Bits/(Pixel*Frame) : 0.069
Stream size : 423 MiB (78%)
Writing library : x265 2.1+59-a895b6344a82:[Windows][GCC 6.2.0][64 bit] 10bit

Audio
Format : AAC
Format/Info : Advanced Audio Codec
Format profile : HE-AAC / LC
Codec ID : A_AAC
Duration : 2 h 09 min
Bit rate : 96 kb/s
Channel(s) : 2 channels
Channel positions : Front: L R
Sampling rate : 48.0 kHz / 24.0 kHz
Frame rate : 23.438 FPS (1024 spf)
Compression mode : Lossy
Delay relative to video : 31 ms
Stream size : 89.2 MiB (17%)
Language : Hindi

3ca20d8c5c1260c72477a34d74ecd5c6.png 8f71b530ed95a64991f48204f2fc3b8d.png 604be9bb1d657fe95c523a3bf9c0c35e.png 1b212592a799511764a660e706b3a21d.png 2aaf9e515df2d27a938f9f2208e3780c.png 429d939b9a89ee174a5e6240524798c0.png

The Hindi name of Indian film «Befikre» (2016) sounds like "carefree". This word best describes the picture and the characters and their lives. Dharam and Xghajra met in the most romantic city in the world - Paris. They immediately captured the spirit of freedom and fullness sensations. Beautiful monuments, majestic Eiffel Tower, gourmet cuisine, all as if pushed to the beginning of the novel.

Impulsiveness characters influenced their relationship, forcing to pass a lot of tests. And the presence of the experience of previous connections prevented the pair surrender surging emotions. However, all the love was born, free and carefree on the French streets. A man and a woman passionate by nature, plunged into the world of pleasure and luxury. Beautiful landscape of the French capital became a worthy backdrop for the development of a love story. Indian film Befikre 2016 watch online you can on our website after the premiere.

But the reality is cruel, and makes its own rules. What hurt in love be carefree? Who fits in their relationship, the risk to destroy everything? Will the two hearts to overcome adversity, to permanently merge? The role of the Shire performed inimitable Vani Kapoor, and the role went to Dharama Ranveer Singh. Indian film director Befikre 2016 - talented Aditya Chopra. But from the stories do not expect the usual storylines. This time Chopra shot a completely new, fresh and original tape. In her love will be examined from a new angle. And the shooting of the film took place in a new way: 50 days in Paris and Mumbai.

Category: Comedy | Added by: mikail
Views: 514 | Downloads: 91 | Rating: 0.0/0
Total comments: 0
avatar