Home » Files » MOVIES TORRENTS » Animation

Sing (2016)
[ Download from this server (115.5Kb) · Screenshot ] 2016-12-31, 7:39 AM

1.43 GB

Set in a world like ours but entirely inhabited by animals, Buster Moon a dapper koala who presides over a once-grand theater that has fallen on hard times. Buster is an eternal-some might even say delusional-optimist who loves his theater above all and will do anything to preserve it. Now faced with the crumbling of his life's ambition, he has one final chance to restore his fading jewel to its former glory by producing the world's greatest singing competition.

Format : AVI
Format/Info : Audio Video Interleave
File size : 1.42 GiB
Duration : 1 h 41 min
Overall bit rate : 2 001 kb/s
Writing library : VirtualDub build 30091/release

Video
ID : 0
Format : MPEG-4 Visual
Format profile : Advanced Simple@L5
Format settings, BVOP : 2
Format settings, QPel : No
Format settings, GMC : No warppoints
Format settings, Matrix : Default (H.263)
Muxing mode : Packed bitstream
Codec ID : XVID
Codec ID/Hint : XviD
Duration : 1 h 41 min
Bit rate : 1 800 kb/s
Width : 720 pixels
Height : 384 pixels
Display aspect ratio : 1.85:1
Frame rate : 25.000 FPS
Color space : YUV
Chroma subsampling : 4:2:0
Bit depth : 8 bits
Scan type : Progressive
Compression mode : Lossy
Bits/(Pixel*Frame) : 0.260
Stream size : 1.28 GiB (90%)
Writing library : XviD 67

Audio
ID : 1
Format : AC-3
Format/Info : Audio Coding 3
Mode extension : CM (complete main)
Format settings, Endianness : Big
Codec ID : 2000
Duration : 1 h 41 min
Bit rate mode : Constant
Bit rate : 192 kb/s
Sampling rate : 48.0 kHz
Frame rate : 31.250 FPS (1536 spf)
Compression mode : Lossy
Stream size : 139 MiB (10%)
Alignment : Aligned on interleaves
Interleave, duration : 40 ms (1.00 video frame)
Interleave, preload duration : 512 ms

9384aebc4cd4aacd5cafc389dac9bfb5.png 9f1b157f3346425d6927b8158cafee71.png 63bf19067149f70055318454b6993b67.png cba347f231cf86563d461d5b56ee9e02.png

In a world that is inhabited by animals, koala named Buster moon struggles to prevent the closure of the theater. As a result, Buster and his friend, Eddie ram, arrange a competition of singers, offering to take part every inhabitant of the city. The top five will be forever busy family cares pig Rosita and its partner Guenther, a lover of gambling - an arrogant white mouse Mike dikobraziha Ash, choose for themselves punk rock direction, young elephant Mina, terribly afraid of the scene, and a gorilla Johnny, who preferred not to go the way of crime, like his father, and find yourself in the music.

At Baxter cartoon Sing special attitude to the theater. He owned a small institution, which does not just bring koala profits, but also satisfy its cultural needs. Art has never been a hero for empty words. I love the theater manifested in everything, because this character over the years nurtured their offspring. Recently, however, the institution loses its former glory and attractiveness. Largely to blame the actors, because the performances have become boring and monotonous. The audience changed interests, which also affected the state of affairs. Theatre is an urgent need to save and Baxter friends came up with a good move.

He intends to announce on holding musical competition with a big money prize. In preparing the invitation leaflets was a curious event. Wind rushed into the room through the open window and literally handed out promotional materials. Baxter upset, considering the work done in vain. Meanwhile, leaflets appeared in various parts of the city. The owner of the theater was looking forward to listening to the day. From wishing to participate in the competition there was no release. By the door of the theater was a huge turn - then Baxter believed that the popularity has returned to it ...

Category: Animation | Added by: mikail | Tags: sing torrent 2016 download
Views: 428 | Downloads: 173 | Rating: 5.0/1
Total comments: 0
avatar